  0
SECTION
  2
HEADER
  9
$ACADVER
  1
AC1014
  9
$ACADMAINTVER
 70
     9
  9
$DWGCODEPAGE
  3
ANSI_1250
  9
$INSBASE
 10
0.0
 20
0.0
 30
0.0
  9
$EXTMIN
 10
547.0463275212943
 20
241.0705271236606
 30
0.0
  9
$EXTMAX
 10
748.1183621486464
 20
398.4567392596886
 30
0.0
  9
$LIMMIN
 10
0.0
 20
0.0
  9
$LIMMAX
 10
12.0
 20
9.0
  9
$ORTHOMODE
 70
     0
  9
$REGENMODE
 70
     1
  9
$FILLMODE
 70
     1
  9
$QTEXTMODE
 70
     0
  9
$MIRRTEXT
 70
     0
  9
$DRAGMODE
 70
     2
  9
$LTSCALE
 40
1.0
  9
$OSMODE
 70
 15359
  9
$ATTMODE
 70
     1
  9
$TEXTSIZE
 40
0.2
  9
$TRACEWID
 40
0.05
  9
$TEXTSTYLE
  7
STANDARD
  9
$CLAYER
  8
0
  9
$CELTYPE
  6
BYLAYER
  9
$CECOLOR
 62
   256
  9
$CELTSCALE
 40
1.0
  9
$DELOBJ
 70
     1
  9
$DISPSILH
 70
     0
  9
$DIMSCALE
 40
1.0
  9
$DIMASZ
 40
0.18
  9
$DIMEXO
 40
0.0625
  9
$DIMDLI
 40
0.38
  9
$DIMRND
 40
0.0
  9
$DIMDLE
 40
0.0
  9
$DIMEXE
 40
0.18
  9
$DIMTP
 40
0.0
  9
$DIMTM
 40
0.0
  9
$DIMTXT
 40
0.18
  9
$DIMCEN
 40
0.09
  9
$DIMTSZ
 40
0.0
  9
$DIMTOL
 70
     0
  9
$DIMLIM
 70
     0
  9
$DIMTIH
 70
     1
  9
$DIMTOH
 70
     1
  9
$DIMSE1
 70
     0
  9
$DIMSE2
 70
     0
  9
$DIMTAD
 70
     0
  9
$DIMZIN
 70
     0
  9
$DIMBLK
  1

  9
$DIMASO
 70
     1
  9
$DIMSHO
 70
     1
  9
$DIMPOST
  1

  9
$DIMAPOST
  1

  9
$DIMALT
 70
     0
  9
$DIMALTD
 70
     2
  9
$DIMALTF
 40
25.4
  9
$DIMLFAC
 40
1.0
  9
$DIMTOFL
 70
     0
  9
$DIMTVP
 40
0.0
  9
$DIMTIX
 70
     0
  9
$DIMSOXD
 70
     0
  9
$DIMSAH
 70
     0
  9
$DIMBLK1
  1

  9
$DIMBLK2
  1

  9
$DIMSTYLE
  2
STANDARD
  9
$DIMCLRD
 70
     0
  9
$DIMCLRE
 70
     0
  9
$DIMCLRT
 70
     0
  9
$DIMTFAC
 40
1.0
  9
$DIMGAP
 40
0.09
  9
$DIMJUST
 70
     0
  9
$DIMSD1
 70
     0
  9
$DIMSD2
 70
     0
  9
$DIMTOLJ
 70
     1
  9
$DIMTZIN
 70
     0
  9
$DIMALTZ
 70
     0
  9
$DIMALTTZ
 70
     0
  9
$DIMFIT
 70
     5
  9
$DIMUPT
 70
     0
  9
$DIMUNIT
 70
     2
  9
$DIMDEC
 70
     4
  9
$DIMTDEC
 70
     4
  9
$DIMALTU
 70
     2
  9
$DIMALTTD
 70
     2
  9
$DIMTXSTY
  7
STANDARD
  9
$DIMAUNIT
 70
     0
  9
$LUNITS
 70
     2
  9
$LUPREC
 70
     4
  9
$SKETCHINC
 40
0.1
  9
$FILLETRAD
 40
0.0
  9
$AUNITS
 70
     0
  9
$AUPREC
 70
     0
  9
$MENU
  1
.
  9
$ELEVATION
 40
0.0
  9
$PELEVATION
 40
0.0
  9
$THICKNESS
 40
0.0
  9
$LIMCHECK
 70
     0
  9
$CHAMFERA
 40
0.0
  9
$CHAMFERB
 40
0.0
  9
$CHAMFERC
 40
0.0
  9
$CHAMFERD
 40
0.0
  9
$SKPOLY
 70
     0
  9
$TDCREATE
 40
2452643.146717593
  9
$TDUPDATE
 40
2456765.601558912
  9
$TDINDWG
 40
0.002935544
  9
$TDUSRTIMER
 40
2456765.517794386
  9
$USRTIMER
 70
     1
  9
$ANGBASE
 50
0.0
  9
$ANGDIR
 70
     0
  9
$PDMODE
 70
     0
  9
$PDSIZE
 40
0.0
  9
$PLINEWID
 40
0.0
  9
$COORDS
 70
     2
  9
$SPLFRAME
 70
     0
  9
$SPLINETYPE
 70
     6
  9
$SPLINESEGS
 70
     8
  9
$ATTDIA
 70
     0
  9
$ATTREQ
 70
     1
  9
$HANDLING
 70
     1
  9
$HANDSEED
  5
260
  9
$SURFTAB1
 70
     6
  9
$SURFTAB2
 70
     6
  9
$SURFTYPE
 70
     6
  9
$SURFU
 70
     6
  9
$SURFV
 70
     6
  9
$UCSNAME
  2

  9
$UCSORG
 10
0.0
 20
0.0
 30
0.0
  9
$UCSXDIR
 10
1.0
 20
0.0
 30
0.0
  9
$UCSYDIR
 10
0.0
 20
1.0
 30
0.0
  9
$PUCSNAME
  2

  9
$PUCSORG
 10
0.0
 20
0.0
 30
0.0
  9
$PUCSXDIR
 10
1.0
 20
0.0
 30
0.0
  9
$PUCSYDIR
 10
0.0
 20
1.0
 30
0.0
  9
$USERI1
 70
     0
  9
$USERI2
 70
     0
  9
$USERI3
 70
     0
  9
$USERI4
 70
     0
  9
$USERI5
 70
     0
  9
$USERR1
 40
0.0
  9
$USERR2
 40
0.0
  9
$USERR3
 40
0.0
  9
$USERR4
 40
0.0
  9
$USERR5
 40
0.0
  9
$WORLDVIEW
 70
     1
  9
$SHADEDGE
 70
     3
  9
$SHADEDIF
 70
    70
  9
$TILEMODE
 70
     0
  9
$MAXACTVP
 70
    64
  9
$PINSBASE
 10
0.0
 20
0.0
 30
0.0
  9
$PLIMCHECK
 70
     0
  9
$PEXTMIN
 10
1.05
 20
0.7999999999999998
 30
0.0
  9
$PEXTMAX
 10
9.45
 20
7.2
 30
0.0
  9
$PLIMMIN
 10
0.8500000000000006
 20
0.5999999999999998
  9
$PLIMMAX
 10
9.650000000000002
 20
7.4
  9
$UNITMODE
 70
     0
  9
$VISRETAIN
 70
     1
  9
$PLINEGEN
 70
     0
  9
$PSLTSCALE
 70
     1
  9
$TREEDEPTH
 70
  3020
  9
$PICKSTYLE
 70
     0
  9
$CMLSTYLE
  2
STANDARD
  9
$CMLJUST
 70
     0
  9
$CMLSCALE
 40
1.0
  9
$PROXYGRAPHICS
 70
     1
  9
$MEASUREMENT
 70
     0
  0
ENDSEC
  0
SECTION
  2
CLASSES
  0
CLASS
  1
ACDBDICTIONARYWDFLT
  2
AcDbDictionaryWithDefault
  3
ObjectDBX Classes
 90
        0
280
     0
281
     0
  0
CLASS
  1
ACDBPLACEHOLDER
  2
AcDbPlaceHolder
  3
ObjectDBX Classes
 90
        0
280
     0
281
     0
  0
CLASS
  1
LAYOUT
  2
AcDbLayout
  3
ObjectDBX Classes
 90
        0
280
     0
281
     0
  0
CLASS
  1
DICTIONARYVAR
  2
AcDbDictionaryVar
  3
ObjectDBX Classes
 90
        0
280
     0
281
     0
  0
CLASS
  1
TABLESTYLE
  2
AcDbTableStyle
  3
ObjectDBX Classes
 90
     4095
280
     0
281
     0
  0
CLASS
  1
MATERIAL
  2
AcDbMaterial
  3
ObjectDBX Classes
 90
     1153
280
     0
281
     0
  0
CLASS
  1
VISUALSTYLE
  2
AcDbVisualStyle
  3
ObjectDBX Classes
 90
     4095
280
     0
281
     0
  0
CLASS
  1
SCALE
  2
AcDbScale
  3
ObjectDBX Classes
 90
     1153
280
     0
281
     0
  0
CLASS
  1
CELLSTYLEMAP
  2
AcDbCellStyleMap
  3
ObjectDBX Classes
 90
     1152
280
     0
281
     0
  0
CLASS
  1
RASTERVARIABLES
  2
AcDbRasterVariables
  3
ISM
 90
        0
280
     0
281
     0
  0
CLASS
  1
SUN
  2
AcDbSun
  3
SCENEOE
 90
     1153
280
     0
281
     0
  0
CLASS
  1
XRECORD
  2
AcDbXrecord
  3
ObjectDBX Classes
 90
        0
280
     0
281
     0
  0
CLASS
  1
LWPOLYLINE
  2
AcDbPolyline
  3
ObjectDBX Classes
 90
        0
280
     0
281
     1
  0
CLASS
  1
HATCH
  2
AcDbHatch
  3
ObjectDBX Classes
 90
        0
280
     0
281
     1
  0
ENDSEC
  0
SECTION
  2
TABLES
  0
TABLE
  2
VPORT
  5
8
330
0
100
AcDbSymbolTable
 70
     1
  0
VPORT
  5
94
330
8
100
AcDbSymbolTableRecord
100
AcDbViewportTableRecord
  2
*ACTIVE
 70
     0
 10
0.0
 20
0.0
 11
1.0
 21
1.0
 12
682.0526152298722
 22
350.7564719089253
 13
0.0
 23
0.0
 14
0.5
 24
0.5
 15
0.5
 25
0.5
 16
0.0
 26
0.0
 36
1.0
 17
-27.66959356597977
 27
-19.53870295786203
 37
0.0
 40
200.1927766416751
 41
1.260923845193508
 42
50.0
 43
0.0
 44
0.0
 50
0.0
 51
0.0
 71
    16
 72
  1000
 73
     1
 74
     3
 75
     0
 76
     0
 77
     0
 78
     0
  0
ENDTAB
  0
TABLE
  2
LTYPE
  5
5
330
0
100
AcDbSymbolTable
 70
     1
  0
LTYPE
  5
14
330
5
100
AcDbSymbolTableRecord
100
AcDbLinetypeTableRecord
  2
BYBLOCK
 70
     0
  3

 72
    65
 73
     0
 40
0.0
  0
LTYPE
  5
15
330
5
100
AcDbSymbolTableRecord
100
AcDbLinetypeTableRecord
  2
BYLAYER
 70
     0
  3

 72
    65
 73
     0
 40
0.0
  0
LTYPE
  5
16
330
5
100
AcDbSymbolTableRecord
100
AcDbLinetypeTableRecord
  2
CONTINUOUS
 70
     0
  3
Solid line
 72
    65
 73
     0
 40
0.0
  0
ENDTAB
  0
TABLE
  2
LAYER
  5
2
330
0
100
AcDbSymbolTable
 70
     5
  0
LAYER
  5
10
330
2
100
AcDbSymbolTableRecord
100
AcDbLayerTableRecord
  2
0
 70
     0
 62
     7
  6
CONTINUOUS
  0
LAYER
  5
125
330
2
100
AcDbSymbolTableRecord
100
AcDbLayerTableRecord
  2
DEFPOINTS
 70
     0
 62
     7
  6
CONTINUOUS
  0
LAYER
  5
126
330
2
100
AcDbSymbolTableRecord
100
AcDbLayerTableRecord
  2
POMOCNÁ
 70
     0
 62
     5
  6
CONTINUOUS
  0
LAYER
  5
128
330
2
100
AcDbSymbolTableRecord
100
AcDbLayerTableRecord
  2
KOTY
 70
     0
 62
     1
  6
CONTINUOUS
1001
ACAECLAYERSTANDARD
1000

1000

  0
LAYER
  5
12A
330
2
100
AcDbSymbolTableRecord
100
AcDbLayerTableRecord
  2
OBRYS
 70
     0
 62
     5
  6
CONTINUOUS
  0
ENDTAB
  0
TABLE
  2
STYLE
  5
3
330
0
100
AcDbSymbolTable
 70
     1
  0
STYLE
  5
11
330
3
100
AcDbSymbolTableRecord
100
AcDbTextStyleTableRecord
  2
STANDARD
 70
     0
 40
0.0
 41
1.0
 50
0.0
 71
     0
 42
0.2
  3
arial.ttf
  4

1001
ACAD
1000
Arial
1071
        0
  0
ENDTAB
  0
TABLE
  2
VIEW
  5
6
330
0
100
AcDbSymbolTable
 70
     0
  0
ENDTAB
  0
TABLE
  2
UCS
  5
7
330
0
100
AcDbSymbolTable
 70
     0
  0
ENDTAB
  0
TABLE
  2
APPID
  5
9
330
0
100
AcDbSymbolTable
 70
     2
  0
APPID
  5
12
330
9
100
AcDbSymbolTableRecord
100
AcDbRegAppTableRecord
  2
ACAD
 70
     0
  0
APPID
  5
129
330
9
100
AcDbSymbolTableRecord
100
AcDbRegAppTableRecord
  2
ACAECLAYERSTANDARD
 70
     0
  0
ENDTAB
  0
TABLE
  2
DIMSTYLE
  5
A
330
0
100
AcDbSymbolTable
 70
     1
  0
DIMSTYLE
105
27
102
{ACAD_REACTORS
330
1E5
330
1E6
330
1E7
102
}
330
A
100
AcDbSymbolTableRecord
100
AcDbDimStyleTableRecord
  2
STANDARD
 70
     0
  3

  4

  5

  6

  7

 40
1.0
 41
0.18
 42
0.0625
 43
0.38
 44
0.18
 45
0.0
 46
0.0
 47
0.0
 48
0.0
140
0.18
141
0.09
142
0.0
143
25.4
144
1.0
145
0.0
146
1.0
147
0.09
 71
     0
 72
     0
 73
     1
 74
     1
 75
     0
 76
     0
 77
     0
 78
     0
170
     0
171
     2
172
     0
173
     0
174
     0
175
     0
176
     0
177
     0
178
     0
270
     2
271
     4
272
     4
273
     2
274
     2
340
11
275
     0
280
     0
281
     0
282
     0
283
     1
284
     0
285
     0
286
     0
287
     3
288
     0
  0
ENDTAB
  0
TABLE
  2
BLOCK_RECORD
  5
1
330
0
100
AcDbSymbolTable
 70
     7
  0
BLOCK_RECORD
  5
1F
330
1
100
AcDbSymbolTableRecord
100
AcDbBlockTableRecord
  2
*MODEL_SPACE
  0
BLOCK_RECORD
  5
58
330
1
100
AcDbSymbolTableRecord
100
AcDbBlockTableRecord
  2
*PAPER_SPACE
  0
BLOCK_RECORD
  5
5D
330
1
100
AcDbSymbolTableRecord
100
AcDbBlockTableRecord
  2
*PAPER_SPACE0
  0
BLOCK_RECORD
  5
17F
330
1
100
AcDbSymbolTableRecord
100
AcDbBlockTableRecord
  2
*D1
  0
BLOCK_RECORD
  5
18C
330
1
100
AcDbSymbolTableRecord
100
AcDbBlockTableRecord
  2
*D2
  0
BLOCK_RECORD
  5
199
330
1
100
AcDbSymbolTableRecord
100
AcDbBlockTableRecord
  2
*D3
  0
BLOCK_RECORD
  5
1F1
330
1
100
AcDbSymbolTableRecord
100
AcDbBlockTableRecord
  2
*D4
  0
BLOCK_RECORD
  5
1FD
330
1
100
AcDbSymbolTableRecord
100
AcDbBlockTableRecord
  2
*D5
  0
BLOCK_RECORD
  5
209
330
1
100
AcDbSymbolTableRecord
100
AcDbBlockTableRecord
  2
*D6
  0
ENDTAB
  0
ENDSEC
  0
SECTION
  2
BLOCKS
  0
BLOCK
  5
20
330
1F
100
AcDbEntity
  8
0
100
AcDbBlockBegin
  2
*MODEL_SPACE
 70
     0
 10
0.0
 20
0.0
 30
0.0
  3
*MODEL_SPACE
  1

  0
ENDBLK
  5
21
330
1F
100
AcDbEntity
  8
0
100
AcDbBlockEnd
  0
BLOCK
  5
5A
330
58
100
AcDbEntity
 67
     1
  8
0
100
AcDbBlockBegin
  2
*PAPER_SPACE
 70
     0
 10
0.0
 20
0.0
 30
0.0
  3
*PAPER_SPACE
  1

  0
ENDBLK
  5
5B
330
58
100
AcDbEntity
 67
     1
  8
0
100
AcDbBlockEnd
  0
BLOCK
  5
5F
330
5D
100
AcDbEntity
  8
0
100
AcDbBlockBegin
  2
*PAPER_SPACE0
 70
     0
 10
0.0
 20
0.0
 30
0.0
  3
*PAPER_SPACE0
  1
*PAPER_SPACE0
  0
ENDBLK
  5
60
330
5D
100
AcDbEntity
  8
0
100
AcDbBlockEnd
  0
BLOCK
  5
180
330
17F
100
AcDbEntity
  8
0
100
AcDbBlockBegin
  2
*D1
 70
     1
 10
0.0
 20
0.0
 30
0.0
  3
*D1
  1
*D2
  0
LINE
  5
181
330
17F
100
AcDbEntity
  8
KOTY
 62
     0
100
AcDbLine
 10
24.85176961809955
 20
27.32371213602801
 30
0.0
 11
24.85176961809955
 21
0.4866666666666856
 31
0.0
  0
LINE
  5
182
330
17F
100
AcDbEntity
  8
KOTY
 62
     0
100
AcDbLine
 10
89.85176961810006
 20
27.32371213602977
 30
0.0
 11
89.85176961810006
 21
0.4866666666666856
 31
0.0
  0
LINE
  5
183
330
17F
100
AcDbEntity
  8
KOTY
 62
     0
100
AcDbLine
 10
28.85176961809955
 20
0.6666666666666856
 30
0.0
 11
85.85176961810006
 21
0.6666666666666856
 31
0.0
  0
SOLID
  5
184
330
17F
100
AcDbEntity
  8
KOTY
 62
     0
100
AcDbTrace
 10
28.85176961809955
 20
1.333333333333352
 30
0.0
 11
28.85176961809955
 21
0.000000000000019
 31
0.0
 12
24.85176961809955
 22
0.6666666666666856
 32
0.0
 13
24.85176961809955
 23
0.6666666666666856
 33
0.0
  0
SOLID
  5
185
330
17F
100
AcDbEntity
  8
KOTY
 62
     0
100
AcDbTrace
 10
85.85176961810006
 20
0.000000000000019
 30
0.0
 11
85.85176961810006
 21
1.333333333333352
 31
0.0
 12
89.85176961810006
 22
0.6666666666666856
 32
0.0
 13
89.85176961810006
 23
0.6666666666666856
 33
0.0
  0
MTEXT
  5
186
330
17F
100
AcDbEntity
  8
KOTY
 62
     0
100
AcDbMText
 10
57.35176961809981
 20
3.708666666666685
 30
0.0
 40
4.0
 41
0.0
 71
     5
 72
     1
  1
\A1;65
  0
POINT
  5
187
330
17F
100
AcDbEntity
  8
DEFPOINTS
 62
     0
100
AcDbPoint
 10
24.85176961809955
 20
27.38621213602801
 30
0.0
  0
POINT
  5
188
330
17F
100
AcDbEntity
  8
DEFPOINTS
 62
     0
100
AcDbPoint
 10
89.85176961810006
 20
27.38621213602977
 30
0.0
  0
POINT
  5
189
330
17F
100
AcDbEntity
  8
DEFPOINTS
 62
     0
100
AcDbPoint
 10
89.85176961810006
 20
0.6666666666666856
 30
0.0
  0
ENDBLK
  5
18A
330
17F
100
AcDbEntity
  8
0
100
AcDbBlockEnd
  0
BLOCK
  5
18D
330
18C
100
AcDbEntity
  8
0
100
AcDbBlockBegin
  2
*D2
 70
     1
 10
0.0
 20
0.0
 30
0.0
  3
*D2
  1
*D3
  0
LINE
  5
18E
330
18C
100
AcDbEntity
  8
KOTY
 62
     0
100
AcDbLine
 10
147.0712210425498
 20
22.32371213602801
 30
0.0
 11
147.0712210425498
 21
0.4866666666666856
 31
0.0
  0
LINE
  5
18F
330
18C
100
AcDbEntity
  8
KOTY
 62
     0
100
AcDbLine
 10
201.0720346273521
 20
96.8895314179249
 30
0.0
 11
201.0720346273521
 21
0.4866666666666856
 31
0.0
  0
LINE
  5
190
330
18C
100
AcDbEntity
  8
KOTY
 62
     0
100
AcDbLine
 10
151.0712210425498
 20
0.6666666666666856
 30
0.0
 11
197.0720346273521
 21
0.6666666666666856
 31
0.0
  0
SOLID
  5
191
330
18C
100
AcDbEntity
  8
KOTY
 62
     0
100
AcDbTrace
 10
151.0712210425498
 20
1.333333333333352
 30
0.0
 11
151.0712210425498
 21
0.000000000000019
 31
0.0
 12
147.0712210425498
 22
0.6666666666666856
 32
0.0
 13
147.0712210425498
 23
0.6666666666666856
 33
0.0
  0
SOLID
  5
192
330
18C
100
AcDbEntity
  8
KOTY
 62
     0
100
AcDbTrace
 10
197.0720346273521
 20
0.000000000000019
 30
0.0
 11
197.0720346273521
 21
1.333333333333352
 31
0.0
 12
201.0720346273521
 22
0.6666666666666856
 32
0.0
 13
201.0720346273521
 23
0.6666666666666856
 33
0.0
  0
MTEXT
  5
193
330
18C
100
AcDbEntity
  8
KOTY
 62
     0
100
AcDbMText
 10
174.0716278349509
 20
3.700666666666685
 30
0.0
 40
4.0
 41
0.0
 71
     5
 72
     1
  1
\A1;54
  0
POINT
  5
194
330
18C
100
AcDbEntity
  8
DEFPOINTS
 62
     0
100
AcDbPoint
 10
147.0712210425498
 20
22.38621213602801
 30
0.0
  0
POINT
  5
195
330
18C
100
AcDbEntity
  8
DEFPOINTS
 62
     0
100
AcDbPoint
 10
201.0720346273521
 20
96.9520314179249
 30
0.0
  0
POINT
  5
196
330
18C
100
AcDbEntity
  8
DEFPOINTS
 62
     0
100
AcDbPoint
 10
201.0720346273521
 20
0.6666666666666856
 30
0.0
  0
ENDBLK
  5
197
330
18C
100
AcDbEntity
  8
0
100
AcDbBlockEnd
  0
BLOCK
  5
19A
330
199
100
AcDbEntity
  8
0
100
AcDbBlockBegin
  2
*D3
 70
     1
 10
0.0
 20
0.0
 30
0.0
  3
*D3
  1
*D4
  0
LINE
  5
19B
330
199
100
AcDbEntity
  8
KOTY
 62
     0
100
AcDbLine
 10
34.78926961809955
 20
157.3862121360279
 30
0.0
 11
4.911999999999965
 21
157.3862121360279
 31
0.0
  0
LINE
  5
19C
330
199
100
AcDbEntity
  8
KOTY
 62
     0
100
AcDbLine
 10
34.78926961809955
 20
17.38621213602909
 30
0.0
 11
4.911999999999956
 21
17.38621213602909
 31
0.0
  0
LINE
  5
19D
330
199
100
AcDbEntity
  8
KOTY
 62
     0
100
AcDbLine
 10
5.091999999999965
 20
153.3862121360279
 30
0.0
 11
5.091999999999956
 21
21.38621213602909
 31
0.0
  0
SOLID
  5
19E
330
199
100
AcDbEntity
  8
KOTY
 62
     0
100
AcDbTrace
 10
5.758666666666632
 20
153.3862121360279
 30
0.0
 11
4.425333333333298
 21
153.3862121360279
 31
0.0
 12
5.091999999999965
 22
157.3862121360279
 32
0.0
 13
5.091999999999965
 23
157.3862121360279
 33
0.0
  0
SOLID
  5
19F
330
199
100
AcDbEntity
  8
KOTY
 62
     0
100
AcDbTrace
 10
4.425333333333289
 20
21.38621213602909
 30
0.0
 11
5.758666666666623
 21
21.38621213602909
 31
0.0
 12
5.091999999999956
 22
17.38621213602909
 32
0.0
 13
5.091999999999956
 23
17.38621213602909
 33
0.0
  0
MTEXT
  5
1A0
330
199
100
AcDbEntity
  8
KOTY
 62
     0
100
AcDbMText
 10
2.049999999999959
 20
87.38621213602849
 30
0.0
 40
4.0
 41
0.0
 71
     5
 72
     1
  1
\A1;140
 11
6.344131569286663E-17
 21
1.0
 31
0.0
  0
POINT
  5
1A1
330
199
100
AcDbEntity
  8
DEFPOINTS
 62
     0
100
AcDbPoint
 10
34.85176961809955
 20
157.3862121360279
 30
0.0
  0
POINT
  5
1A2
330
199
100
AcDbEntity
  8
DEFPOINTS
 62
     0
100
AcDbPoint
 10
34.85176961809955
 20
17.38621213602909
 30
0.0
  0
POINT
  5
1A3
330
199
100
AcDbEntity
  8
DEFPOINTS
 62
     0
100
AcDbPoint
 10
5.091999999999956
 20
17.38621213602909
 30
0.0
  0
ENDBLK
  5
1A4
330
199
100
AcDbEntity
  8
0
100
AcDbBlockEnd
  0
BLOCK
  5
1F2
330
1F1
100
AcDbEntity
  8
0
100
AcDbBlockBegin
  2
*D4
 70
     1
 10
0.0
 20
0.0
 30
0.0
  3
*D4
  1
*D5
  0
LINE
  5
1F4
330
1F1
100
AcDbEntity
  8
KOTY
 62
     0
100
AcDbLine
 10
571.8980971393937
 20
268.3942392596886
 30
0.0
 11
571.8980971393937
 21
241.5571937903272
 31
0.0
  0
LINE
  5
1F5
330
1F1
100
AcDbEntity
  8
KOTY
 62
     0
100
AcDbLine
 10
636.8980971393943
 20
268.3942392596903
 30
0.0
 11
636.8980971393943
 21
241.5571937903272
 31
0.0
  0
LINE
  5
1F6
330
1F1
100
AcDbEntity
  8
KOTY
 62
     0
100
AcDbLine
 10
575.8980971393937
 20
241.7371937903272
 30
0.0
 11
632.8980971393943
 21
241.7371937903272
 31
0.0
  0
SOLID
  5
1F7
330
1F1
100
AcDbEntity
  8
KOTY
 62
     0
100
AcDbTrace
 10
575.8980971393937
 20
242.4038604569939
 30
0.0
 11
575.8980971393937
 21
241.0705271236606
 31
0.0
 12
571.8980971393937
 22
241.7371937903272
 32
0.0
 13
571.8980971393937
 23
241.7371937903272
 33
0.0
  0
SOLID
  5
1F8
330
1F1
100
AcDbEntity
  8
KOTY
 62
     0
100
AcDbTrace
 10
632.8980971393943
 20
241.0705271236606
 30
0.0
 11
632.8980971393943
 21
242.4038604569939
 31
0.0
 12
636.8980971393943
 22
241.7371937903272
 32
0.0
 13
636.8980971393943
 23
241.7371937903272
 33
0.0
  0
MTEXT
  5
1F9
330
1F1
100
AcDbEntity
  8
KOTY
 62
     0
100
AcDbMText
 10
604.3980971393939
 20
244.7791937903272
 30
0.0
 40
4.0
 41
0.0
 71
     5
 72
     1
  1
\A1;65
  0
POINT
  5
1FA
330
1F1
100
AcDbEntity
  8
DEFPOINTS
 62
     0
100
AcDbPoint
 10
571.8980971393937
 20
268.4567392596886
 30
0.0
  0
POINT
  5
1FB
330
1F1
100
AcDbEntity
  8
DEFPOINTS
 62
     0
100
AcDbPoint
 10
636.8980971393943
 20
268.4567392596903
 30
0.0
  0
POINT
  5
1FC
330
1F1
100
AcDbEntity
  8
DEFPOINTS
 62
     0
100
AcDbPoint
 10
636.8980971393943
 20
241.7371937903272
 30
0.0
  0
ENDBLK
  5
1F3
330
1F1
100
AcDbEntity
  8
0
100
AcDbBlockEnd
  0
BLOCK
  5
1FE
330
1FD
100
AcDbEntity
  8
0
100
AcDbBlockBegin
  2
*D5
 70
     1
 10
0.0
 20
0.0
 30
0.0
  3
*D5
  1
*D6
  0
LINE
  5
200
330
1FD
100
AcDbEntity
  8
KOTY
 62
     0
100
AcDbLine
 10
694.117548563844
 20
263.3942392596886
 30
0.0
 11
694.117548563844
 21
241.5571937903272
 31
0.0
  0
LINE
  5
201
330
1FD
100
AcDbEntity
  8
KOTY
 62
     0
100
AcDbLine
 10
748.1183621486463
 20
337.9600585415855
 30
0.0
 11
748.1183621486463
 21
241.5571937903272
 31
0.0
  0
LINE
  5
202
330
1FD
100
AcDbEntity
  8
KOTY
 62
     0
100
AcDbLine
 10
698.117548563844
 20
241.7371937903272
 30
0.0
 11
744.1183621486463
 21
241.7371937903272
 31
0.0
  0
SOLID
  5
203
330
1FD
100
AcDbEntity
  8
KOTY
 62
     0
100
AcDbTrace
 10
698.117548563844
 20
242.4038604569939
 30
0.0
 11
698.117548563844
 21
241.0705271236606
 31
0.0
 12
694.117548563844
 22
241.7371937903272
 32
0.0
 13
694.117548563844
 23
241.7371937903272
 33
0.0
  0
SOLID
  5
204
330
1FD
100
AcDbEntity
  8
KOTY
 62
     0
100
AcDbTrace
 10
744.1183621486463
 20
241.0705271236606
 30
0.0
 11
744.1183621486463
 21
242.4038604569939
 31
0.0
 12
748.1183621486463
 22
241.7371937903272
 32
0.0
 13
748.1183621486463
 23
241.7371937903272
 33
0.0
  0
MTEXT
  5
205
330
1FD
100
AcDbEntity
  8
KOTY
 62
     0
100
AcDbMText
 10
721.1179553562451
 20
244.7711937903272
 30
0.0
 40
4.0
 41
0.0
 71
     5
 72
     1
  1
\A1;54
  0
POINT
  5
206
330
1FD
100
AcDbEntity
  8
DEFPOINTS
 62
     0
100
AcDbPoint
 10
694.117548563844
 20
263.4567392596886
 30
0.0
  0
POINT
  5
207
330
1FD
100
AcDbEntity
  8
DEFPOINTS
 62
     0
100
AcDbPoint
 10
748.1183621486463
 20
338.0225585415855
 30
0.0
  0
POINT
  5
208
330
1FD
100
AcDbEntity
  8
DEFPOINTS
 62
     0
100
AcDbPoint
 10
748.1183621486463
 20
241.7371937903272
 30
0.0
  0
ENDBLK
  5
1FF
330
1FD
100
AcDbEntity
  8
0
100
AcDbBlockEnd
  0
BLOCK
  5
20A
330
209
100
AcDbEntity
  8
0
100
AcDbBlockBegin
  2
*D6
 70
     1
 10
0.0
 20
0.0
 30
0.0
  3
*D6
  1
*D7
  0
LINE
  5
20C
330
209
100
AcDbEntity
  8
KOTY
 62
     0
100
AcDbLine
 10
581.8355971393937
 20
398.4567392596884
 30
0.0
 11
551.9583275212942
 21
398.4567392596884
 31
0.0
  0
LINE
  5
20D
330
209
100
AcDbEntity
  8
KOTY
 62
     0
100
AcDbLine
 10
581.8355971393937
 20
258.4567392596896
 30
0.0
 11
551.9583275212942
 21
258.4567392596896
 31
0.0
  0
LINE
  5
20E
330
209
100
AcDbEntity
  8
KOTY
 62
     0
100
AcDbLine
 10
552.1383275212942
 20
394.4567392596884
 30
0.0
 11
552.1383275212942
 21
262.4567392596896
 31
0.0
  0
SOLID
  5
20F
330
209
100
AcDbEntity
  8
KOTY
 62
     0
100
AcDbTrace
 10
552.8049941879608
 20
394.4567392596884
 30
0.0
 11
551.4716608546275
 21
394.4567392596884
 31
0.0
 12
552.1383275212942
 22
398.4567392596884
 32
0.0
 13
552.1383275212942
 23
398.4567392596884
 33
0.0
  0
SOLID
  5
210
330
209
100
AcDbEntity
  8
KOTY
 62
     0
100
AcDbTrace
 10
551.4716608546275
 20
262.4567392596896
 30
0.0
 11
552.8049941879608
 21
262.4567392596896
 31
0.0
 12
552.1383275212942
 22
258.4567392596896
 32
0.0
 13
552.1383275212942
 23
258.4567392596896
 33
0.0
  0
MTEXT
  5
211
330
209
100
AcDbEntity
  8
KOTY
 62
     0
100
AcDbMText
 10
549.0963275212941
 20
328.456739259689
 30
0.0
 40
4.0
 41
0.0
 71
     5
 72
     1
  1
\A1;140
 11
0.0
 21
1.0
 31
0.0
  0
POINT
  5
212
330
209
100
AcDbEntity
  8
DEFPOINTS
 62
     0
100
AcDbPoint
 10
581.8980971393937
 20
398.4567392596884
 30
0.0
  0
POINT
  5
213
330
209
100
AcDbEntity
  8
DEFPOINTS
 62
     0
100
AcDbPoint
 10
581.8980971393937
 20
258.4567392596896
 30
0.0
  0
POINT
  5
214
330
209
100
AcDbEntity
  8
DEFPOINTS
 62
     0
100
AcDbPoint
 10
552.1383275212942
 20
258.4567392596896
 30
0.0
  0
ENDBLK
  5
20B
330
209
100
AcDbEntity
  8
0
100
AcDbBlockEnd
  0
ENDSEC
  0
SECTION
  2
ENTITIES
  0
ARC
  5
1B1
330
1F
100
AcDbEntity
  8
OBRYS
100
AcDbCircle
 10
581.8980971393937
 20
268.4567392596886
 30
0.0
 40
10.0
100
AcDbArc
 50
180.0
 51
270.0
  0
ARC
  5
1B2
330
1F
100
AcDbEntity
  8
OBRYS
100
AcDbCircle
 10
581.8980971393937
 20
388.4567392596886
 30
0.0
 40
10.0
100
AcDbArc
 50
90.0
 51
180.0
  0
ARC
  5
1B3
330
1F
100
AcDbEntity
  8
OBRYS
100
AcDbCircle
 10
626.8980971393938
 20
388.4567392596886
 30
0.0
 40
10.0
100
AcDbArc
 50
0.0
 51
90.0
  0
ARC
  5
1B4
330
1F
100
AcDbEntity
  8
OBRYS
100
AcDbCircle
 10
622.4628783032965
 20
272.8919580957867
 30
0.0
 40
15.10121547989082
100
AcDbArc
 50
287.0795676974986
 51
342.9204323025094
  0
LINE
  5
1B5
330
1F
100
AcDbEntity
  8
OBRYS
100
AcDbLine
 10
581.8980971393937
 20
258.4567392596896
 30
0.0
 11
626.8980971393938
 21
258.4567392596896
 31
0.0
  0
LINE
  5
1B6
330
1F
100
AcDbEntity
  8
OBRYS
100
AcDbLine
 10
581.8980971393937
 20
398.4567392596884
 30
0.0
 11
626.8980971393938
 21
398.4567392596884
 31
0.0
  0
ARC
  5
1B7
330
1F
100
AcDbEntity
  8
OBRYS
100
AcDbCircle
 10
576.8980971393937
 20
341.9567392596886
 30
0.0
 40
5.0
100
AcDbArc
 50
180.0
 51
270.0
  0
ARC
  5
1B8
330
1F
100
AcDbEntity
  8
OBRYS
100
AcDbCircle
 10
630.2447130983591
 20
343.6101233007236
 30
0.0
 40
6.855741971854294
100
AcDbArc
 50
283.9554736620973
 51
346.0445263378954
  0
LINE
  5
1B9
330
1F
100
AcDbEntity
  8
OBRYS
100
AcDbLine
 10
571.8980971393937
 20
388.4567392596886
 30
0.0
 11
571.8980971393937
 21
268.4567392596886
 31
0.0
  0
LINE
  5
1BA
330
1F
100
AcDbEntity
  8
OBRYS
100
AcDbLine
 10
636.8980971393937
 20
388.4567392596886
 30
0.0
 11
636.8980971393938
 21
268.4567392596886
 31
0.0
  0
CIRCLE
  5
1BB
330
1F
100
AcDbEntity
  8
OBRYS
100
AcDbCircle
 10
604.3980971393937
 20
366.4567392596886
 30
0.0
 40
19.0
  0
CIRCLE
  5
1BC
330
1F
100
AcDbEntity
  8
OBRYS
100
AcDbCircle
 10
594.9980971393937
 20
366.4567392596886
 30
0.0
 40
2.75
  0
CIRCLE
  5
1BD
330
1F
100
AcDbEntity
  8
OBRYS
100
AcDbCircle
 10
604.3980971393937
 20
376.4567392596886
 30
0.0
 40
2.5
  0
CIRCLE
  5
1BE
330
1F
100
AcDbEntity
  8
OBRYS
100
AcDbCircle
 10
613.7980971393936
 20
366.4567392596886
 30
0.0
 40
2.75
  0
CIRCLE
  5
1BF
330
1F
100
AcDbEntity
  8
OBRYS
100
AcDbCircle
 10
604.3980971393937
 20
355.9567392596896
 30
0.0
 40
2.0
  0
LINE
  5
1C0
330
1F
100
AcDbEntity
  8
OBRYS
100
AcDbLine
 10
604.8980971393937
 20
357.8931013225961
 30
0.0
 11
604.8980971393937
 21
354.0202475865856
 31
0.0
  0
LINE
  5
1C1
330
1F
100
AcDbEntity
  8
OBRYS
100
AcDbLine
 10
603.898097139394
 20
354.0202475865856
 30
0.0
 11
603.898097139394
 21
357.8932309327926
 31
0.0
  0
LINE
  5
1C2
330
1F
100
AcDbEntity
  8
OBRYS
100
AcDbLine
 10
580.3980971393937
 20
264.9567852218445
 30
0.0
 11
628.3980971393934
 21
264.9567852218445
 31
0.0
  0
LINE
  5
1C3
330
1F
100
AcDbEntity
  8
OBRYS
100
AcDbLine
 10
575.3980971393937
 20
269.9567852218448
 30
0.0
 11
575.398097139397
 21
337.1870432526028
 31
0.0
  0
LINE
  5
1C4
330
1F
100
AcDbEntity
  8
OBRYS
100
AcDbLine
 10
633.3980971393934
 20
269.9567852218436
 30
0.0
 11
633.3980971394061
 21
337.5226470523663
 31
0.0
  0
ARC
  5
1C5
330
1F
100
AcDbEntity
  8
OBRYS
100
AcDbCircle
 10
604.3980971393937
 20
461.1872741483863
 30
0.0
 40
127.2378709297349
100
AcDbArc
 50
257.5181332268288
 51
282.481866773171
  0
LINE
  5
1C6
330
1F
100
AcDbEntity
  8
OBRYS
100
AcDbLine
 10
579.3980483058449
 20
330.9297502754205
 30
0.0
 11
579.3980483058449
 21
271.7568052528637
 31
0.0
  0
LINE
  5
1C7
330
1F
100
AcDbEntity
  8
OBRYS
100
AcDbLine
 10
584.3980483058449
 20
266.7568052528637
 30
0.0
 11
624.398091932229
 21
266.7568052528637
 31
0.0
  0
LINE
  5
1C8
330
1F
100
AcDbEntity
  8
OBRYS
100
AcDbLine
 10
629.398091932229
 20
271.7568052528637
 30
0.0
 11
629.398091932229
 21
330.9297502754205
 31
0.0
  0
ARC
  5
1C9
330
1F
100
AcDbEntity
  8
OBRYS
100
AcDbCircle
 10
604.3980701190369
 20
492.4470835399176
 30
0.0
 40
163.4406621240094
100
AcDbArc
 50
261.2014489390696
 51
278.7985510609303
  0
LINE
  5
1CA
330
1F
100
AcDbEntity
  8
OBRYS
100
AcDbLine
 10
739.4183621486462
 20
334.0225585415856
 30
0.0
 11
744.1183621486462
 21
334.0225585415855
 31
0.0
  0
LINE
  5
1CB
330
1F
100
AcDbEntity
  8
OBRYS
100
AcDbLine
 10
744.1183621486464
 20
334.0225585415855
 30
0.0
 11
744.1183621486464
 21
398.4567392596884
 31
0.0
  0
ARC
  5
1CC
330
1F
100
AcDbEntity
  8
OBRYS
100
AcDbCircle
 10
733.3825888089347
 20
264.4925125994005
 30
0.0
 40
6.124000834391959
100
AcDbArc
 50
279.7374393740058
 51
350.262560626003
  0
LINE
  5
1CD
330
1F
100
AcDbEntity
  8
OBRYS
100
AcDbLine
 10
739.4183621486462
 20
263.4567392596886
 30
0.0
 11
739.4183621486462
 21
334.0225585415856
 31
0.0
  0
LINE
  5
1CE
330
1F
100
AcDbEntity
  8
OBRYS
100
AcDbLine
 10
694.117548563844
 20
263.4567392596886
 30
0.0
 11
694.117548563844
 21
393.4567392596886
 31
0.0
  0
LINE
  5
1CF
330
1F
100
AcDbEntity
  8
OBRYS
100
AcDbLine
 10
694.117548563844
 20
391.9567392596886
 30
0.0
 11
675.4175485638439
 21
391.9567392596886
 31
0.0
  0
LINE
  5
1D0
330
1F
100
AcDbEntity
  8
OBRYS
100
AcDbLine
 10
675.4175485638439
 20
391.9567392596886
 30
0.0
 11
675.4175485638439
 21
355.6567392596897
 31
0.0
  0
LINE
  5
1D1
330
1F
100
AcDbEntity
  8
OBRYS
100
AcDbLine
 10
675.4175485638439
 20
355.6567392596897
 30
0.0
 11
694.117548563844
 21
355.6567392596897
 31
0.0
  0
LINE
  5
1D2
330
1F
100
AcDbEntity
  8
OBRYS
100
AcDbLine
 10
675.4175485638439
 20
376.306739259688
 30
0.0
 11
665.4175485638439
 21
376.306739259688
 31
0.0
  0
LINE
  5
1D3
330
1F
100
AcDbEntity
  8
OBRYS
100
AcDbLine
 10
665.4175485638439
 20
371.3067392596892
 30
0.0
 11
675.4175485638439
 21
371.3067392596892
 31
0.0
  0
LINE
  5
1D4
330
1F
100
AcDbEntity
  8
OBRYS
100
AcDbLine
 10
665.4175485638439
 20
376.306739259688
 30
0.0
 11
660.4175485638439
 21
376.306739259688
 31
0.0
  0
LINE
  5
1D5
330
1F
100
AcDbEntity
  8
OBRYS
100
AcDbLine
 10
665.4175485638439
 20
371.3067392596892
 30
0.0
 11
660.4175485638439
 21
371.3067392596892
 31
0.0
  0
ARC
  5
1D6
330
1F
100
AcDbEntity
  8
OBRYS
100
AcDbCircle
 10
662.9175485638439
 20
373.8067392596892
 30
0.0
 40
3.535533905932737
100
AcDbArc
 50
135.0000000000052
 51
224.9999999999948
  0
LINE
  5
1D7
330
1F
100
AcDbEntity
  8
OBRYS
100
AcDbLine
 10
715.4183485638441
 20
398.4567392596884
 30
0.0
 11
715.4183485638441
 21
258.4567392596896
 31
0.0
  0
LINE
  5
1D8
330
1F
100
AcDbEntity
  8
OBRYS
100
AcDbLine
 10
748.1183621486464
 20
394.4567392596886
 30
0.0
 11
748.1183621486463
 21
338.0225585415855
 31
0.0
  0
ARC
  5
1D9
330
1F
100
AcDbEntity
  8
OBRYS
100
AcDbCircle
 10
744.1183621486464
 20
394.4567392596886
 30
0.0
 40
3.999999999999999
100
AcDbArc
 50
0.0
 51
90.0
  0
ARC
  5
1DA
330
1F
100
AcDbEntity
  8
OBRYS
100
AcDbCircle
 10
744.1183621486463
 20
338.0225585415855
 30
0.0
 40
4.000000000000001
100
AcDbArc
 50
269.9999999999984
 51
0.0
  0
LINE
  5
1DB
330
1F
100
AcDbEntity
  8
OBRYS
100
AcDbLine
 10
699.117548563844
 20
398.4567392596884
 30
0.0
 11
744.1183621486464
 21
398.4567392596884
 31
0.0
  0
LINE
  5
1DC
330
1F
100
AcDbEntity
  8
OBRYS
100
AcDbLine
 10
699.117548563844
 20
258.4567392596886
 30
0.0
 11
734.418362148647
 21
258.4567392596887
 31
0.0
  0
ARC
  5
1DD
330
1F
100
AcDbEntity
  8
OBRYS
100
AcDbCircle
 10
699.117548563844
 20
263.4567392596886
 30
0.0
 40
5.000000000000003
100
AcDbArc
 50
180.0
 51
270.0
  0
ARC
  5
1DE
330
1F
100
AcDbEntity
  8
OBRYS
100
AcDbCircle
 10
699.117548563844
 20
393.4567392596886
 30
0.0
 40
5.0
100
AcDbArc
 50
90.0
 51
180.0
  0
LINE
  5
1DF
330
1F
100
AcDbEntity
  8
OBRYS
100
AcDbLine
 10
675.4175485638439
 20
382.556739259688
 30
0.0
 11
694.117548563844
 21
382.556739259688
 31
0.0
  0
LINE
  5
1E0
330
1F
100
AcDbEntity
  8
OBRYS
100
AcDbLine
 10
675.4175485638439
 20
365.0567392596892
 30
0.0
 11
694.117548563844
 21
365.0567392596892
 31
0.0
  0
ARC
  5
1E1
330
1F
100
AcDbEntity
  8
OBRYS
100
AcDbCircle
 10
580.3980971393937
 20
269.9567852218445
 30
0.0
 40
5.000000000000002
100
AcDbArc
 50
179.9999999999974
 51
270.0
  0
ARC
  5
1E2
330
1F
100
AcDbEntity
  8
OBRYS
100
AcDbCircle
 10
628.3980971393934
 20
269.9567852218445
 30
0.0
 40
4.999999999999998
100
AcDbArc
 50
270.0
 51
359.9999999999895
  0
ARC
  5
1E3
330
1F
100
AcDbEntity
  8
OBRYS
100
AcDbCircle
 10
584.3980483058449
 20
271.7568052528637
 30
0.0
 40
5.0
100
AcDbArc
 50
180.0
 51
270.0
  0
ARC
  5
1E4
330
1F
100
AcDbEntity
  8
OBRYS
100
AcDbCircle
 10
624.398091932229
 20
271.7568052528637
 30
0.0
 40
5.0
100
AcDbArc
 50
270.0
 51
0.0
  0
DIMENSION
  5
1E5
330
1F
100
AcDbEntity
  8
KOTY
100
AcDbDimension
  2
*D4
 10
636.8980971393943
 20
241.7371937903272
 30
0.0
 11
604.3980971393939
 21
244.7791937903272
 31
0.0
 70
    32
  3
STANDARD
100
AcDbAlignedDimension
 13
571.8980971393937
 23
268.4567392596886
 33
0.0
 14
636.8980971393943
 24
268.4567392596903
 34
0.0
100
AcDbRotatedDimension
1001
ACAD
1000
DSTYLE
1002
{
1070
   271
1070
     0
1070
   278
1070
    44
1070
   140
1040
4.0
1070
    73
1070
     0
1070
    77
1070
     1
1070
   147
1040
1.0
1070
    41
1040
4.0
1002
}
  0
DIMENSION
  5
1E6
330
1F
100
AcDbEntity
  8
KOTY
100
AcDbDimension
  2
*D5
 10
748.1183621486463
 20
241.7371937903272
 30
0.0
 11
721.1179553562451
 21
244.7711937903272
 31
0.0
 70
    32
  3
STANDARD
100
AcDbAlignedDimension
 13
694.117548563844
 23
263.4567392596886
 33
0.0
 14
748.1183621486463
 24
338.0225585415855
 34
0.0
100
AcDbRotatedDimension
1001
ACAD
1000
DSTYLE
1002
{
1070
   271
1070
     0
1070
   278
1070
    44
1070
   140
1040
4.0
1070
    73
1070
     0
1070
    77
1070
     1
1070
   147
1040
1.0
1070
    41
1040
4.0
1002
}
  0
DIMENSION
  5
1E7
330
1F
100
AcDbEntity
  8
KOTY
100
AcDbDimension
  2
*D6
 10
552.1383275212942
 20
258.4567392596896
 30
0.0
 11
549.0963275212941
 21
328.456739259689
 31
0.0
 70
    32
  3
STANDARD
100
AcDbAlignedDimension
 13
581.8980971393937
 23
398.4567392596884
 33
0.0
 14
581.8980971393937
 24
258.4567392596896
 34
0.0
 50
90.0
100
AcDbRotatedDimension
1001
ACAD
1000
DSTYLE
1002
{
1070
   271
1070
     0
1070
   278
1070
    44
1070
   140
1040
4.0
1070
    73
1070
     0
1070
    77
1070
     1
1070
   147
1040
1.0
1070
    41
1040
4.0
1002
}
  0
CIRCLE
  5
1E8
330
1F
100
AcDbEntity
  8
OBRYS
100
AcDbCircle
 10
590.6481898182244
 20
295.7067340975346
 30
0.0
 40
2.0
  0
CIRCLE
  5
1E9
330
1F
100
AcDbEntity
  8
OBRYS
100
AcDbCircle
 10
617.1483898182245
 20
295.7067340975346
 30
0.0
 40
2.0
  0
CIRCLE
  5
1EA
330
1F
100
AcDbEntity
  8
POMOCNÁ
100
AcDbCircle
 10
590.6481898182244
 20
277.7067371414423
 30
0.0
 40
5.0
  0
CIRCLE
  5
1EB
330
1F
100
AcDbEntity
  8
POMOCNÁ
100
AcDbCircle
 10
590.6481898182244
 20
277.7067371414423
 30
0.0
 40
4.599999999999999
  0
CIRCLE
  5
1EC
330
1F
100
AcDbEntity
  8
POMOCNÁ
100
AcDbCircle
 10
590.6481898182244
 20
277.7067371414423
 30
0.0
 40
2.0
  0
CIRCLE
  5
1ED
330
1F
100
AcDbEntity
  8
POMOCNÁ
100
AcDbCircle
 10
617.1483898182246
 20
277.7067371414423
 30
0.0
 40
5.0
  0
CIRCLE
  5
1EE
330
1F
100
AcDbEntity
  8
POMOCNÁ
100
AcDbCircle
 10
617.1483898182246
 20
277.7067371414423
 30
0.0
 40
1.0
  0
CIRCLE
  5
1EF
330
1F
100
AcDbEntity
  8
POMOCNÁ
100
AcDbCircle
 10
617.1483898182246
 20
277.7067371414423
 30
0.0
 40
3.0
  0
CIRCLE
  5
1F0
330
1F
100
AcDbEntity
  8
POMOCNÁ
100
AcDbCircle
 10
617.1483898182246
 20
277.7067371414423
 30
0.0
 40
3.399999999999999
  0
VIEWPORT
  5
215
330
58
100
AcDbEntity
 67
     1
  8
0
100
AcDbViewport
 10
0.0
 20
0.0
 30
0.0
 40
8.976
 41
6.936000000000001
 68
     1
 69
     1
1001
ACAD
1000
MVIEW
1002
{
1070
    16
1010
0.0
1020
0.0
1030
0.0
1010
0.0
1020
0.0
1030
1.0
1040
0.0
1040
6.936000000000001
1040
5.25
1040
4.0
1040
50.0
1040
0.0
1040
0.0
1070
     0
1070
   100
1070
     0
1070
     3
1070
     0
1070
     0
1070
     0
1070
     0
1040
0.0
1040
0.0
1040
0.0
1040
0.5
1040
0.5
1040
0.0
1040
0.0
1070
     0
1002
{
1002
}
1002
}
  0
VIEWPORT
  5
216
330
58
100
AcDbEntity
 67
     1
  8
0
100
AcDbViewport
 10
5.25
 20
4.0
 30
0.0
 40
8.4
 41
6.4
 68
     2
 69
     2
1001
ACAD
1000
MVIEW
1002
{
1070
    16
1010
0.0
1020
0.0
1030
0.0
1010
0.0
1020
0.0
1030
1.0
1040
0.0
1040
160.5339363787485
1040
647.5823448349704
1040
319.7636331916746
1040
50.0
1040
0.0
1040
0.0
1070
     0
1070
   100
1070
     0
1070
     3
1070
     0
1070
     0
1070
     0
1070
     0
1040
0.0
1040
0.0
1040
0.0
1040
0.5
1040
0.5
1040
0.0
1040
0.0
1070
     0
1002
{
1002
}
1002
}
  0
ENDSEC
  0
SECTION
  2
OBJECTS
  0
DICTIONARY
  5
C
330
0
100
AcDbDictionary
  3
ACAD_DETAILVIEWSTYLE
350
122
  3
ACAD_GROUP
350
D
  3
ACAD_IMAGE_VARS
350
DC
  3
ACAD_MLINESTYLE
350
17
  3
ACAD_SCALELIST
350
219
  3
ACAD_SECTIONVIEWSTYLE
350
123
  3
ACDBVARIABLEDICTIONARY
350
66
  3
APPDATA
350
E1
  3
DWGPROPS
350
25F
  0
DICTIONARY
  5
122
102
{ACAD_REACTORS
330
C
102
}
330
C
100
AcDbDictionary
  0
DICTIONARY
  5
D
102
{ACAD_REACTORS
330
C
102
}
330
C
100
AcDbDictionary
  0
RASTERVARIABLES
  5
DC
102
{ACAD_REACTORS
330
C
102
}
330
C
100
AcDbRasterVariables
 90
        0
 70
     1
 71
     1
 72
     5
  0
DICTIONARY
  5
17
102
{ACAD_REACTORS
330
C
102
}
330
C
100
AcDbDictionary
  3
STANDARD
350
18
  0
DICTIONARY
  5
219
102
{ACAD_REACTORS
330
C
102
}
330
C
100
AcDbDictionary
  0
DICTIONARY
  5
123
102
{ACAD_REACTORS
330
C
102
}
330
C
100
AcDbDictionary
  0
DICTIONARY
  5
66
102
{ACAD_REACTORS
330
C
102
}
330
C
100
AcDbDictionary
  3
DIMASSOC
350
67
  3
HIDETEXT
350
6B
  0
DICTIONARY
  5
E1
102
{ACAD_REACTORS
330
C
102
}
330
C
100
AcDbDictionary
  0
XRECORD
  5
25F
102
{ACAD_REACTORS
330
C
102
}
330
C
100
AcDbXrecord
  1
DWGPROPS COOKIE
  2

  3

  4

  6

  7

  8
jaromir.podrabsky
  9

300
=
301
=
302
=
303
=
304
=
305
=
306
=
307
=
308
=
309
=
 40
0.0
 41
2452643.063384259
 42
2456765.518225579
  1

 90
        0
  0
MLINESTYLE
  5
18
102
{ACAD_REACTORS
330
17
102
}
330
17
100
AcDbMlineStyle
  2
STANDARD
 70
     0
  3

 62
   256
 51
90.0
 52
90.0
 71
     2
 49
0.5
 62
   256
  6
BYLAYER
 49
-0.5
 62
   256
  6
BYLAYER
  0
DICTIONARYVAR
  5
67
102
{ACAD_REACTORS
330
66
102
}
330
66
100
DictionaryVariables
280
     0
  1
2
  0
DICTIONARYVAR
  5
6B
102
{ACAD_REACTORS
330
66
102
}
330
66
100
DictionaryVariables
280
     0
  1
1
  0
ENDSEC
  0
EOF
